#TITLE:Revival Day Impoetus;
#SUBTITLE:Chrono Trigger;
#ARTIST:DJ Pretzel;
#TITLETRANSLIT:;
#SUBTITLETRANSLIT:;
#ARTISTTRANSLIT:;
#CREDIT:;
#BANNER:Revival Day Impoetus.jpg;
#BACKGROUND:Revival Day Impoetus-bg.jpg;
#LYRICSPATH:;
#CDTITLE:Char.PNG;
#MUSIC:Revival Day Impoetus.mp3;
#OFFSET:0.514;
#SAMPLESTART:27.218;
#SAMPLELENGTH:16.000;
#SELECTABLE:YES;
#BPMS:0.000=147.000,196.000=73.500,228.000=147.000;
#STOPS:;
#BGCHANGES:;
// cache tags:
#FIRSTBEAT:4.000;
#LASTBEAT:294.750;
#SONGFILENAME:Songs/Music V.I.P ^_^/Revival Day Impoetus (DBP)/Revival Day Impoetus.sm;
#HASMUSIC:1;
#HASBANNER:1;
#MUSICLENGTH:132.963;
// end cache tags

//---------------dance-single - ----------------
#NOTES:
     dance-single:
     :
     Hard:
     11:
     1.000,1.000,1.000,0.060,1.000,829.000,215.000,8.000,0.000,0.000:

0000
0000
0000
0000
,
0101
0000
0100
0000
0011
0000
1100
0000
0010
0001
1000
0010
0100
0000
0001
0000
,
1001
0000
0000
0100
0000
0000
0011
0000
0000
0101
0000
0000
1000
0010
0100
0001
0000
0000
0101
0000
0000
0010
0000
0000
,
1010
0000
0010
0000
0011
0000
0011
0000
0100
1000
0010
0100
0001
0000
0100
0000
,
0011
0000
0000
0100
0000
0000
0011
0000
0000
1100
0000
0000
1010
0000
0000
0100
0001
1000
0010
0000
0000
1000
0000
0000
,
0011
0000
0001
0000
0101
0000
1010
0000
0100
0001
0010
0100
1000
0000
0010
0000
,
0011
0000
0000
1010
0000
0000
0101
0000
0000
0011
0000
0000
0100
0001
1000
0100
0000
0000
1010
0000
0000
0010
0000
0000
,
0011
0000
0001
0000
1001
0000
0011
0000
0001
1000
0100
0010
0001
0000
0001
0000
,
0110
0000
0000
1010
0000
0000
1000
0000
0000
1100
0000
0000
0110
0000
0000
0010
0100
0010
0100
0000
0000
1000
0000
0000
,
1010
0000
0010
0000
0101
0000
1010
0000
0100
0001
1000
0100
0010
0000
0001
0000
,
1100
0000
0000
0010
0000
0000
1100
0000
0000
1010
0000
0000
1000
0100
0010
0100
0000
0000
1100
0000
0000
0010
0000
0000
,
1001
0000
0100
0000
1010
0000
1100
0000
0100
1000
0001
0010
0100
0000
0010
0000
,
1001
0000
0000
1000
0000
0000
0011
0000
0000
1001
0000
0000
0101
0000
0000
0001
0010
0001
0100
0000
0000
0010
0000
0000
,
1100
0000
1000
0000
0101
0000
1001
0000
0100
0001
0010
0100
1000
0000
0001
0000
,
0110
0000
0000
0011
0000
0000
1001
0000
0000
1010
0000
0000
1000
0100
0010
0001
0000
0000
0101
0000
0000
0100
0000
0000
,
0110
0000
0010
0000
1100
0000
0110
0000
1000
0001
0010
0001
0100
0000
0010
0000
,
1001
0000
0000
0011
0000
0000
1000
0000
0000
1010
0000
0000
1001
0000
0000
0100
0001
1000
0010
0000
0000
0001
0000
0000
,
0110
0000
0000
0000
1010
0000
0110
0000
0010
1000
0100
0010
0001
0000
0100
0000
,
0101
0000
0000
0000
0000
0000
1010
0000
0000
0011
0000
0000
1000
0100
1000
0001
0000
0000
1010
0000
0000
0000
0000
0000
,
1100
0000
0000
0000
0011
0000
0101
0000
0001
0010
0100
1000
0100
0000
0001
0000
,
0011
0000
0000
0000
0000
0000
0011
0000
0000
0110
0000
0000
0100
0000
0000
0001
1000
0001
1000
0000
0000
0000
0000
0000
,
0110
0000
0000
0000
0110
0000
1100
0000
0010
1000
0100
0010
0001
0000
0010
0000
,
1010
0000
0000
0000
0000
0000
1100
0000
0000
1010
0000
0000
1000
0001
1000
0001
0000
0000
1100
0000
0000
0000
0000
0000
,
0011
0000
0000
0000
0011
0000
0110
0000
1000
0100
0010
0001
0100
0000
0100
0000
,
1010
0000
0000
0000
0000
0000
0110
0000
0000
1001
0000
0000
0001
0000
0000
1000
0100
1000
0100
0000
0000
0000
0000
0000
,
0110
0000
0100
0000
0101
0000
0011
0000
0010
0100
0010
0001
1000
0000
1000
0000
,
0011
0000
0000
0100
0000
0000
0101
0000
0000
1001
0000
0000
0001
0010
0100
1000
0000
0000
1100
0000
0000
0100
0000
0000
,
1010
0000
0010
0000
0011
0000
0101
0000
1000
0100
1000
0010
0100
0000
0001
0000
,
1001
0000
0000
0001
0000
0000
1010
0000
0000
1001
0000
0000
0001
0000
0000
0100
0001
0010
0001
0000
0000
0100
0000
0000
,
0011
0000
0001
0000
1001
0000
1010
0000
1000
0001
0010
0100
1000
0000
1000
0000
,
0011
0000
0000
1000
0000
0000
1001
0000
0000
1001
0000
0000
0100
0010
0100
0010
0000
0000
0110
0000
0000
0010
0000
0000
,
1010
0000
0010
0000
1001
0000
0011
0000
0001
0100
0010
1000
0001
0000
0010
0000
,
1100
0000
0000
0100
0000
0000
1100
0000
0000
1001
0000
0000
0001
0000
0000
0100
0010
0100
0010
0000
0000
0010
0000
0000
,
1000
0001
0010
0100
1000
0010
1000
0001
0100
0000
0101
0000
0100
0010
0100
0001
,
1000
0010
1000
0001
1000
0001
0010
0001
1000
0000
0110
0000
1100
0000
0001
0000
,
0100
0010
0100
0001
0100
1000
0100
0000
0011
0000
0101
0000
0101
0000
0010
1000
,
0100
0010
0001
0100
0010
0100
0001
1000
0100
0000
1000
0000
1010
0000
0010
0000
,
0011
0000
0001
0000
0100
0000
0010
1000
0010
0100
0001
1000
0100
0010
0100
1000
,
0100
1000
0010
1000
0001
0100
0010
1000
0100
0000
0001
0000
0011
0000
0010
0000
,
0011
0000
1000
0100
1000
0000
0100
0010
0100
0010
0001
0100
0010
1000
0010
0100
,
0001
0010
0110
1001
1100
0010
0110
1000
,
0010
1000
0001
1000
0010
1000
0010
0100
0010
0000
1100
0000
0001
0100
0001
0010
,
0100
0010
0100
1000
0010
1000
0100
0010
0001
0000
1100
0000
0011
0000
0001
0000
,
0100
0010
1000
0100
0001
0100
1000
0000
1100
0000
1100
0000
1010
0000
0001
0100
,
0010
0100
1000
0100
0010
0100
1000
0100
0010
0000
0010
0000
0110
0000
0010
0000
,
1010
0000
1000
0000
0100
0000
1000
0100
0010
0001
0010
0100
0010
1000
0010
0100
,
0010
0001
1000
0100
0010
0001
0100
0001
1000
0000
0010
0000
1001
0000
0010
0000
,
0110
0000
0010
1000
0001
0100
0001
0010
1000
0010
0001
0010
0100
1000
0010
0100
,
0001
1000
1001
0110
1100
0100
0011
0100
,
0110
0100
0001
1001
1010
0010
0000
1001
1100
0110
0010
1001
0000
0100
1001
0000
,
0010
0000
0000
1001
0011
0110
0100
1100
1000
0010
1000
0010
0001
0010
0020
0030
,
1001
0000
0000
1100
0110
0100
0000
1010
0101
1100
0001
1010
0000
0001
1001
1000
,
0010
0000
0000
0000
0000
0000
0000
0000
0000
0000
0000
0000
0000
0000
0000
0000
0000
0000
0000
0000
0000
0000
0000
0000
0100
0000
0000
0000
0000
0000
0000
0000
0000
0000
0000
0000
1010
0000
0000
0000
0000
0000
0000
0000
0000
0000
0000
0000
0110
0000
0000
0000
0000
0000
0000
0000
0000
0000
0000
0000
1001
0000
0000
0000
0000
0000
0000
0000
0000
0000
0000
0000
1000
0000
0000
0000
0000
0000
0000
0000
0000
0000
0000
0000
1100
0000
0000
0000
0000
0000
0000
0000
0000
0000
0000
0000
1000
0000
0000
0000
0000
0000
0000
0000
0000
0000
0000
0000
0010
0000
0000
0000
0000
0000
0001
0000
0000
0000
0000
0000
0100
0000
0000
0000
0000
0000
0000
0000
0000
0000
0000
0000
0010
0000
0000
0000
0100
0000
0000
0000
0010
0000
0000
0000
1000
0000
0000
0000
0000
0000
0000
0000
0000
0000
0000
0000
0001
0000
0000
0000
0000
0000
0000
0000
0000
0000
0000
0000
2000
0000
0000
0000
0010
0000
0000
0000
0000
0000
0000
0000
0000
0000
0000
0000
3000
0000
0000
0000
0000
0000
0000
0000
,
0010
0000
1000
0000
0010
0000
0110
0000
0011
0000
1001
0000
0001
0000
1000
0000
0110
0000
0101
0010
0100
0000
1001
0000
0100
0000
0001
0000
1010
0000
0010
0000
,
0001
0010
1000
0011
0101
1010
0000
1001
1000
0001
0100
0110
0100
1000
1010
0010
,
0001
0000
0000
0010
0000
0000
0010
0000
0000
1001
0000
0000
1010
0000
0000
0110
0000
0000
0100
0000
0000
1001
0000
0000
0010
0000
0000
1010
0000
0000
0011
0000
0000
1010
0000
0000
0001
0000
0000
0110
0000
0000
2001
0000
0000
0010
3000
0000
,
0100
0000
0000
0010
0000
0000
0001
0000
0000
1010
0000
0000
1100
0000
0000
1010
0000
0000
0001
0000
0000
0101
0000
0000
0001
0000
0000
1100
0000
0000
0100
0000
0000
0110
0000
0000
0101
0000
0000
1010
0000
0000
1200
0000
0000
0010
0300
0000
,
0101
1000
0100
1000
0001
0000
1010
0000
1100
0000
0011
0000
1001
0000
0101
0000
,
0001
0010
0100
1001
1010
1001
1100
0001
,
0010
0000
0110
0000
0100
0000
0101
0000
0001
0000
0001
0000
0010
1000
0100
1000
,
0001
0100
0010
0100
0001
1000
0010
0100
0010
1000
0001
0000
0012
0000
0010
0003
,
1001
0000
1000
0000
1000
0000
0100
1000
0100
1000
0010
0100
0001
1000
0100
0010
,
0001
0010
0100
0010
1000
0010
0100
0010
0001
0100
1000
0000
0011
0000
0010
0000
,
0010
0000
0100
0001
1000
0000
0001
1000
0100
1000
0010
0100
0001
0100
0010
1000
,
0100
0000
0000
0000
0000
0000
0010
0000
0000
0100
0000
0000
0001
0000
0000
0000
0000
0000
0100
0000
1000
0000
0100
0000
0000
0000
0000
0000
0000
0000
0100
0000
0000
0010
0000
0000
0200
0000
0000
0000
0000
0000
0000
0000
0000
0000
0000
0000
,
0310
0000
0000
0000
0000
0000
0000
0000
0000
0000
0000
0000
0100
0000
0000
0000
0000
0000
0000
0000
0000
0000
0000
0000
0000
0000
0000
0000
0000
0000
1000
0000
0000
0000
0000
0000
0000
0000
0000
0000
0000
0000
0000
0000
0000
0000
0000
0000
0000
0000
0000
0000
0000
0000
0000
0000
0000
0000
0000
0000
1000
0000
0000
0000
0000
0000
0000
0000
0000
0000
0000
0000
0100
0000
0000
0000
0000
0000
0000
0000
0000
0000
0000
0000
0010
0000
0000
0000
0000
0000
0000
0000
0000
0000
0000
0000
0001
0000
0000
0000
0000
0000
0000
0000
0010
0000
0000
0000
0000
0000
0000
0000
0001
0000
0000
0000
0000
0000
0000
0000
0010
0000
0000
0000
0000
0000
0000
0000
0000
0000
0000
0000
0100
0000
0000
0000
0000
0000
0000
0000
0000
0000
0000
0000
1000
0000
0000
0000
0000
0000
0000
0000
0000
0000
0000
0000
0010
0000
0000
0000
0000
0000
0000
0000
1000
0000
0000
0000
0000
0000
0000
0000
0010
0000
0000
0000
0000
0000
0000
0000
0100
0000
0000
0000
0000
0000
0000
0000
0000
0000
0000
0000
,
0010
0000
0000
0000
1000
0000
0000
0000
0010
0000
0000
0000
0100
0000
0000
0000
0001
0000
0000
0000
0010
0000
0000
0000
0100
0000
0000
0000
0010
0000
0000
0000
0001
0000
0000
0000
0100
0000
0000
0000
0010
0000
0000
1000
0000
0000
0000
0000
0001
0100
0000
0000
0010
0000
0000
0000
0100
0000
0000
0000
0001
0000
0000
0000
,
0010
0000
0001
0000
0100
0000
0010
0000
1000
0000
0100
0000
1000
0000
0100
0000
0010
0000
0001
0000
0010
0001
1000
0000
0001
0000
0010
0000
0100
1000
0001
0000
,
0010
0000
0001
0000
1000
0000
0010
0000
0100
0001
0010
0000
0100
0000
0010
0000
0100
0000
1000
0000
0010
0000
0100
0000
0001
0000
0100
0000
1000
0000
0100
0000
,
0000
0010
0100
0000
0000
0000
0000
0000
0000
0000
0000
0000
0000
0000
0000
0000
0011
0000
0000
0000
0000
0000
0000
0000
1000
0000
0000
0000
0100
0000
0000
0000
1000
0000
0000
0000
0010
0000
0000
0000
0100
0000
0000
0000
0010
0000
0000
0000
0001
0000
0000
0000
0010
0000
0000
0000
1000
0000
0000
0000
0100
0000
0000
0000
,
0010
1000
0010
0100
0001
0100
1000
0100
1000
0100
1000
0000
0110
0000
0001
0000
,
1100
0000
0000
0000
0000
0000
0100
0000
0000
0000
0000
0000
1001
0000
0000
0000
0000
0000
1000
0000
0000
0000
0000
0000
0101
0000
0000
0000
0000
0000
0100
0000
0000
0000
0000
0000
1010
0000
0000
0000
0000
0000
0100
0000
0000
0000
0000
0001
,
0100
0000
0000
0000
0000
0000
1000
0000
0000
0000
0000
1000
0001
0000
0000
0000
0000
0000
0001
0000
0000
0000
0000
0010
0100
0000
0000
0000
0000
0000
0100
0000
0000
0000
0000
0100
0010
0000
0000
0000
0000
0000
1000
0000
0000
0000
0000
0000
,
2002
0000
0000
0000
0000
0000
0000
0000
0000
0000
0000
3003
0000
0000
0000
0000
;

//---------------dance-single - Copied from----------------
#NOTES:
     dance-single:
     Copied from:
     Challenge:
     11:
     1.000,1.000,1.000,0.060,1.000,863.000,340.000,8.000,0.000,0.000:


0000
0000
0000
0000
,
1001
0000
0100
0000
1010
0000
0101
0000
1100
0010
0001
0100
1010
0000
0010
0000
,
0101
0000
0000
1000
0000
0000
0110
0000
0000
1100
0000
0000
0010
1000
0001
0010
0000
0000
1100
0000
0000
0010
0000
0000
,
1001
0000
0100
0000
0011
0000
1100
0000
0101
0010
1000
0100
0011
0000
0100
0000
,
1001
0000
0000
0100
0000
0000
1010
0000
0000
0101
0000
0000
1010
0000
0000
1000
0001
0010
1100
0000
0000
0100
0000
0000
,
1001
0000
1000
0000
0110
0000
0101
0000
0110
1000
0001
0010
0101
0000
0010
0000
,
1100
0000
0000
0011
0000
0000
1100
0000
0000
0101
0000
0000
0010
0001
1000
0100
0000
0000
1001
0000
0000
0010
0000
0000
,
0101
0000
1000
0000
0110
0000
1010
0000
0101
0010
1000
0010
0101
0000
0100
0000
,
0011
0000
0000
0110
0000
0000
0001
0000
0000
1100
0000
0000
0011
0000
0000
0100
0001
1000
0101
0000
0000
0010
0000
0000
,
1001
0000
0010
0000
0101
0000
1010
0000
0011
0100
1000
0010
0101
0000
0100
0000
,
1010
0000
0000
0001
0000
0000
0110
0000
0000
0011
0000
0000
0100
0001
1000
0100
0000
0000
0011
0000
0000
0100
0000
0000
,
1001
0000
0010
0000
1100
0000
0011
0000
1010
0100
0001
0010
1100
0000
0010
0000
,
1001
0000
0000
0010
0000
0000
0101
0000
0000
1010
0000
0000
0101
0000
0000
0001
1000
0100
0011
0000
0000
0010
0000
0000
,
1001
0000
0001
0000
0110
0000
1010
0000
0110
0001
1000
0100
1010
0000
0100
0000
,
0011
0000
0000
1100
0000
0000
0011
0000
0000
1010
0000
0000
0100
1000
0001
0010
0000
0000
1001
0000
0000
0100
0000
0000
,
1010
0000
0001
0000
0110
0000
0101
0000
1010
0100
0001
0100
1010
0000
0010
0000
,
1100
0000
0000
0110
0000
0000
1000
0000
0000
0011
0000
0000
1100
0000
0000
0010
1000
0001
1010
0000
0000
0010
0000
0000
,
1001
0000
0000
0000
0101
0000
1010
0000
0010
1000
0101
0010
0101
0010
1000
0100
,
0011
0000
0000
0000
0000
0000
1001
0000
0000
0110
0000
0000
0001
1000
0100
0010
0000
0000
0110
0000
0000
0000
0000
0000
,
1001
0000
0000
0000
1010
0000
0101
0000
0100
0001
1010
0100
1010
0100
0001
0010
,
1100
0000
0000
0000
0000
0000
1001
0000
0000
0110
0000
0000
1000
0000
0000
0100
0010
0001
0110
0000
0000
0000
0000
0000
,
0110
0000
0000
0000
1100
0000
0011
0000
0001
0010
1100
0001
1100
0001
0010
1000
,
0101
0000
0000
0000
0000
0000
0110
0000
0000
1001
0000
0000
0100
0010
1000
0001
0000
0000
1001
0000
0000
0000
0000
0000
,
0110
0000
0000
0000
0011
0000
1100
0000
1000
0100
0011
1000
0011
1000
0100
0001
,
1010
0000
0000
0000
0000
0000
0110
0000
0000
1001
0000
0000
0010
0000
0000
1000
0001
0100
1001
0000
0000
0000
0000
0000
,
0110
0000
0001
0000
1100
0000
0011
0000
0001
0010
1100
0001
1100
0001
0010
1000
,
0101
0000
0000
1000
0000
0000
0110
0000
0000
1001
0000
0000
0100
0010
1000
0001
0000
0000
0011
0000
0000
1000
0000
0000
,
0110
0000
1000
0000
0011
0000
1100
0000
1000
0100
0011
1000
0011
1000
0100
0001
,
1010
0000
0000
0001
0000
0000
0110
0000
0000
1001
0000
0000
0010
0000
0000
1000
0001
0100
1001
0000
0000
0010
0000
0000
,
1001
0000
0100
0000
1010
0000
0101
0000
0100
0001
1010
0100
1010
0100
0001
0010
,
1100
0000
0000
0010
0000
0000
1001
0000
0000
0110
0000
0000
1000
0001
0010
0100
0000
0000
0110
0000
0000
1000
0000
0000
,
0011
0000
1000
0000
0101
0000
1010
0000
0010
1000
0101
0010
0101
0010
1000
0100
,
0011
0000
0000
0100
0000
0000
1001
0000
0000
0110
0000
0000
0001
0000
0000
0010
0100
1000
0110
0000
0000
0001
0000
0000
,
0101
1000
0001
1000
0001
1000
0011
1000
0110
0000
1100
0000
1010
0100
1000
0100
,
1010
0100
0010
0101
1010
0100
0011
1000
0110
0000
0110
0000
1001
0000
0010
0000
,
1010
0100
0001
0100
0001
0100
0011
0000
0101
0000
0110
0000
1001
0000
0100
1000
,
0101
1000
0010
1000
0110
0001
1100
0010
1100
0000
0001
0000
1010
0000
0100
0000
,
0011
0000
1000
0000
1000
0000
0101
0010
0101
0010
1001
0100
1010
0001
0010
1000
,
0011
0100
1000
0100
0011
0100
1010
0001
1010
0000
0010
0000
0101
0000
0010
0000
,
0011
0000
0001
0100
0001
0000
1010
0100
0011
1000
0101
0010
1001
0100
0010
0100
,
1001
0100
1100
0011
0101
0100
1010
0100
,
1100
0001
1000
0001
1000
0001
1100
0001
0110
0000
0011
0000
0101
0010
0001
0010
,
0101
0010
0100
1010
0101
0010
1100
0001
0110
0000
0110
0000
1001
0000
0100
0000
,
0101
0010
1000
0010
1000
0010
1100
0000
1010
0000
0110
0000
1001
0000
0010
0001
,
1010
0001
0100
0001
0110
1000
0011
0100
0011
0000
1000
0000
0101
0000
0010
0000
,
1100
0000
0001
0000
0001
0000
1010
0100
1010
0100
1001
0010
0101
1000
0100
0001
,
1100
0010
0001
0010
1100
0010
0101
1000
0101
0000
0100
0000
1010
0000
0100
0000
,
1100
0000
1000
0010
1000
0000
0101
0010
1100
0001
1010
0100
1001
0010
0100
0010
,
1001
0010
0011
1100
1010
0010
0101
0010
,
1001
0000
0010
0000
0100
0000
1001
0000
1010
0000
0100
0000
0000
0000
0101
0000
1100
0000
0011
1000
0100
0000
1001
0000
0000
0000
0010
0000
0110
0000
0000
0000
,
0001
0000
0000
0000
0000
0000
0011
0000
1100
0010
1001
0100
0010
0000
0101
0000
0010
0000
0100
0000
0001
0000
0010
0000
0100
0000
0001
0000
0020
0000
0130
0000
,
1100
0000
0000
0011
1100
0010
0000
0110
1010
0101
0010
0101
0000
0010
1001
0100
,
1000
0000
0000
0000
0000
0000
0000
0000
0000
0000
0000
0000
0000
0000
0000
0000
0000
0000
0000
0000
0000
0000
0000
0000
0010
0000
0000
0000
0000
0000
0000
0000
0000
0000
0000
0000
0110
0000
0000
0000
0000
0000
0000
0000
0000
0000
0000
0000
1001
0000
0000
0000
0000
0000
0000
0000
0000
0000
0000
0000
0110
0000
0000
0000
0000
0000
0000
0000
0000
0000
0000
0000
0100
0000
0000
0000
0000
0000
0000
0000
0000
0000
0000
0000
1001
0000
0000
0000
0000
0000
0000
0000
0000
0000
0000
0000
0001
0000
0000
0000
0000
0000
0000
0000
0000
0000
0000
0000
1000
0000
0000
0000
0000
0000
0010
0000
0000
0000
0000
0000
1000
0000
0000
0000
0000
0000
0000
0000
0000
0000
0000
0000
0100
0000
0000
0000
1000
0000
0000
0000
0010
0000
0000
0000
0100
0000
0000
0000
0000
0000
0000
0000
0000
0000
0000
0000
0010
0000
0000
0000
0000
0000
0000
0000
0000
0000
0000
0000
0200
0000
0000
0000
0001
0000
0000
0000
0000
0000
0000
0000
0000
0000
0000
0000
0300
0000
0000
0000
0000
0000
0000
0000
,
1000
0000
0100
0000
1000
0000
0011
0000
0110
0000
1100
0000
0010
0000
0001
0000
0110
0000
1010
0100
0001
0000
1100
0000
0010
0000
0100
0000
1010
0000
0001
0000
,
1000
0010
0100
1001
0110
1010
0000
1001
0010
0001
0010
0101
1000
0001
1010
0001
,
1000
0000
0000
0001
0000
0000
0100
0000
0000
0110
0000
0000
1001
0000
0000
0110
0000
0000
0010
0000
0000
0101
0000
0000
1000
0000
0000
0110
0000
0000
0011
0000
0000
1100
0000
0000
0010
0000
0000
0101
0000
0000
1200
0000
0000
0001
0300
0000
,
1000
0000
0000
0010
0000
0000
1000
0000
0000
0101
0000
0000
1010
0000
0000
0011
0000
0000
0100
0000
0000
1001
0000
0000
0100
0000
0000
1001
0000
0000
0010
0000
0000
0101
0000
0000
1001
0000
0000
0110
0000
0000
1002
0000
0000
0100
0003
0000
,
0110
1000
0001
1000
0001
1000
0011
1000
0110
0000
1100
0000
1010
0100
1001
0100
,
0010
1000
0100
0001
0010
0100
1001
0010
0101
0000
0110
0000
1010
0000
0010
0000
,
0010
0000
0011
0100
0001
0100
0011
1000
0100
0000
0010
0000
0101
1000
0101
1000
,
0001
0010
0100
1000
0100
0001
1000
0010
0100
0000
0100
0000
2010
0000
0100
3000
,
0011
0000
1000
0000
1000
0000
1001
0100
0011
1000
0101
0010
0101
0010
1001
0100
,
0010
0100
1000
0100
0010
0001
1100
0010
1001
0000
0011
0000
0101
0000
0010
0000
,
0010
0000
1001
0100
0001
0000
1010
0100
0010
1000
0010
0100
1001
0100
1010
0100
,
0001
0000
0000
0000
0000
0000
0010
0000
0000
0001
0000
0000
0100
0000
0000
0000
0000
0000
0001
0000
0010
0000
0001
0000
0000
0000
0000
0000
0000
0000
0100
0000
0000
0010
0000
0000
0002
0000
0000
0000
0000
0000
0000
0000
0000
0000
0000
0000
,
0013
0000
0000
0000
0000
0000
0000
0000
0000
0000
0000
0000
0010
0000
0000
0000
0000
0000
0000
0000
0000
0000
0000
0000
0000
0000
0000
0000
0000
0000
1000
0000
0000
0000
0000
0000
0000
0000
0000
0000
0000
0000
0000
0000
0000
0000
0000
0000
0000
0000
0000
0000
0000
0000
0000
0000
0000
0000
0000
0000
1000
0000
0000
0000
0000
0000
0000
0000
0000
0000
0000
0000
0100
0000
0000
0000
0000
0000
0000
0000
0000
0000
0000
0000
0010
0000
0000
0000
0000
0000
0000
0000
0000
0000
0000
0000
0001
0000
0000
0000
0000
0000
0000
0000
0010
0000
0000
0000
0000
0000
0000
0000
0001
0000
0000
0000
0000
0000
0000
0000
0100
0000
0000
0000
0000
0000
0000
0000
0000
0000
0000
0000
0010
0000
0000
0000
0000
0000
0000
0000
0000
0000
0000
0000
1000
0000
0000
0000
0000
0000
0000
0000
0000
0000
0000
0000
0010
0000
0000
0000
0000
0000
0000
0000
0100
0000
0000
0000
0000
0000
0000
0000
0001
0000
0000
0000
0000
0000
0000
0000
1000
0000
0000
0000
0000
0000
0000
0000
0000
0000
0000
0000
,
0010
0000
0000
0000
0100
0000
0000
0000
0010
0000
0000
0000
1000
0000
0000
0000
0001
0000
0000
0000
1000
0000
0000
0000
0100
0000
0000
0000
0010
0000
0000
0000
0001
0000
0000
0000
1000
0000
0000
0000
0001
0000
0000
0100
0000
0000
0000
0000
0010
1000
0000
0000
0001
0000
0000
0000
0010
0000
0000
0000
0100
0000
0000
0000
,
0010
0000
0001
0000
0010
0000
0100
0000
1000
0000
0010
0000
0100
0000
0010
0000
0001
0000
0100
0000
0001
1000
0100
0000
0010
0000
0001
0000
0100
0010
0100
0000
,
0010
0000
1000
0000
0100
0000
1000
0000
0010
1000
0001
0000
0010
0000
0001
0000
0100
0000
0001
0000
0100
0000
0010
0000
1000
0000
0100
0000
0010
0000
0001
0000
,
0000
0010
0001
0000
0000
0000
0000
0000
0000
0000
0000
0000
0000
0000
0000
0000
0101
0000
0000
0000
0000
0000
0000
0000
1100
0000
0000
0000
0001
0000
0000
0000
1100
0000
0000
0000
0001
0000
0000
0000
1100
0000
0000
0000
0001
0000
0000
0000
1100
0000
0000
0000
0001
0000
0000
0000
1100
0000
0000
0000
0001
0000
0000
0000
,
0010
0001
0100
0010
0100
0001
0010
0001
1000
0010
1001
0000
0110
0000
1100
0000
,
0011
0000
0000
0000
0000
0000
1001
0000
0000
0100
0000
0000
1010
0000
0000
0000
0000
0000
1100
0000
0000
0001
0000
0000
0110
0000
0000
0001
0000
0000
1010
0000
0000
0100
0000
0000
1010
0000
0000
0001
0000
0000
0110
0000
0000
1000
0000
0001
,
0010
0000
0000
0000
0000
0000
1100
0000
0000
0000
0000
1000
0100
0000
0000
0000
0000
0000
0011
0000
0000
0000
0000
0100
0010
0000
0000
0000
0000
0000
1100
0000
0000
0000
0000
0010
0100
0000
0000
0000
0000
0000
0101
0000
0000
0000
0000
0000
,
2002
0000
0000
0000
0000
0000
0000
0000
0000
0000
0000
3003
0000
0000
0000
0000
;
